Home| All Soft| Last Soft| Download Status| Customers opinion| Support| Cart

Program Search:

Shopping Cart:




*Note: Minimum order price: €20
We Recommend:
The Portrait Masters - The Lighting Series with Felix Kunze and Sue Bryce €30 buy download
× The Portrait Masters - The Lighting Series with Felix Kunze and Sue Bryce Close
The Portrait Masters - The Lighting Series with Felix Kunze and Sue Bryce
WEBRip | English | MP4 | 1920 x 1080 | AVC ~3776 kbps
AAC ~256 Kbps | 48.0 KHz | 2 channels | ~12 hours | 14.61 GBGenre: eLearning Video / Photographing
Sue Bryce and lighting expert Felix Kunze have created a special video series that focuses on incorporating artificial light into your studio. This comprehensive course delivers 10 lessons (plus 2 bonus lessons) that will open your eyes to the endless opportunities studio lighting creates. Any studio, any space, any set-up, there is always a way to create beautiful light.Learn the fundamental knowledge behind understanding artificial light, execute beautiful lighting scenarios anywhere and elevate your photography exponentially. Each course zeroes in on one specific topic and scenario. Felix takes you through how to set-up the lighting, your camera settings, shooting, modifying, and will leave you with all the tools you’ll need to master magnificent light in your studio.

The lessons include understanding sync speed, how to choose a modifier, replicating natural light, achieving Felix’s signature lighting set-up, shooting on-location with strobes, creating back and sidelit scenarios, shooting in small spaces with strobes, formal portraits and headshots, group lighting, layering light, shooting into backlight, and more.


Table of Contents

1.TLS-01 Sync and Shutter Speed - 00:09:55
2.TLS-02 One Light - 00:52:34
3.TLS-03 Shooting in Small Spaces - 00:19:52
4.TLS-04 Wall Poses - 00:36:09
5.TLS-05 Kickass One Light - 00:31:32
6.TLS-06 Backlight Natural vs Strobe - 00:38:08
7.TLS-07 Felix Signature Light - 00:35:14
8.TLS-08 Back and Side Light - 01:11:10
9.TLS-09 Headshots - 00:23:47
10.TLS-10 Group Lighting - 01:26:32
11.TLS-11 Layered Lighting - 00:28:24

Bonus

1.TLS-12 One Strobe on Location - 00:50:51
2.TLS-13 Lighting Workshop :
*TLS-13 Lighting Workshop-01 - 00:00:08
*TLS-13 Lighting Workshop-02 - 00:19:12
*TLS-13 Lighting Workshop-03 - 00:26:24
*TLS-13 Lighting Workshop-04 - 00:24:03
*TLS-13 Lighting Workshop-05 - 00:36:58
*TLS-13 Lighting Workshop-06 - 00:23:54
*TLS-13 Lighting Workshop-07 - 00:20:14
3.TLS-14 Flow Presentation - 01:29:33

also You can find my other helpful photographing-posts
(if old file-links don't show activity, try copy-paste them to the address bar)

MediaInfo: General
Complete name : TLS-02 One Light.mp4
Format : MPEG-4
Format profile : Base Media / Version 2
Codec ID : mp42 (mp42/mp41/isom/avc1)
File size : 1.48 GiB
Duration : 52 min 34 s
Overall bit rate mode : Variable
Overall bit rate : 4 036 kb/s
Encoded date : UTC 2017-11-22 15:55:09
Tagged date : UTC 2017-11-22 15:55:09

Video
ID : 1
Format : AVC
Format/Info : Advanced Video Codec
Format profile : High@L4
Format settings : CABAC / 4 Ref Frames
Format settings, CABAC : Yes
Format settings, RefFrames : 4 frames
Codec ID : avc1
Codec ID/Info : Advanced Video Coding
Duration : 52 min 34 s
Bit rate : 3 776 kb/s
Width : 1 920 pixels
Height : 1 080 pixels
Display aspect ratio : 16:9
Frame rate mode : Constant
Frame rate : 23.976 (24000/1001) FPS
Color space : YUV
Chroma subsampling : 4:2:0
Bit depth : 8 bits
Scan type : Progressive
Bits/(Pixel*Frame) : 0.076
Stream size : 1.39 GiB (94%)
Writing library : x264 core 152 r10 ba24899
Encoding settings : cabac=1 / ref=4 / deblock=1:0:0 / analyse=0x3:0x113 / me=hex / subme=8 / psy=1 / psy_rd=1.00:0.00 / mixed_ref=1 / me_range=16 / chroma_me=1 / trellis=2 / 8x8dct=1 / cqm=0 / deadzone=21,11 / fast_pskip=1 / chroma_qp_offset=-2 / threads=34 / lookahead_threads=5 / sliced_threads=0 / nr=0 / decimate=1 / interlaced=0 / bluray_compat=0 / stitchable=1 / constrained_intra=0 / bframes=3 / b_pyramid=2 / b_adapt=2 / b_bias=0 / direct=3 / weightb=1 / open_gop=0 / weightp=2 / keyint=infinite / keyint_min=23 / scenecut=40 / intra_refresh=0 / rc_lookahead=50 / rc=crf / mbtree=1 / crf=20.0 / qcomp=0.60 / qpmin=5 / qpmax=69 / qpstep=4 / vbv_maxrate=5500 / vbv_bufsize=15000 / crf_max=0.0 / nal_hrd=none / filler=0 / ip_ratio=1.40 / aq=1:1.00
Encoded date : UTC 2017-11-22 15:55:09
Tagged date : UTC 2017-11-22 15:55:09
Color range : Limited
Color primaries : BT.709
Transfer characteristics : BT.709
Matrix coefficients : BT.709

Audio
ID : 2
Format : AAC
Format/Info : Advanced Audio Codec
Format profile : LC
Codec ID : mp4a-40-2
Duration : 52 min 34 s
Bit rate mode : Variable
Bit rate : 256 kb/s
Channel(s) : 2 channels
Channel positions : Front: L R
Sampling rate : 48.0 kHz
Frame rate : 46.875 FPS (1024 SPF)
Compression mode : Lossy
Stream size : 96.3 MiB (6%)
Encoded date : UTC 2017-11-22 15:55:09
Tagged date : UTC 2017-11-22 15:55:09
Screenshots
× The Portrait Masters - The Lighting Series with Felix Kunze and Sue Bryce Close
× The Portrait Masters - The Lighting Series with Felix Kunze and Sue Bryce Close
× The Portrait Masters - The Lighting Series with Felix Kunze and Sue Bryce Close
× The Portrait Masters - The Lighting Series with Felix Kunze and Sue Bryce Close
✅ Exclusive eLearning Videos ParRus-blog ← add to bookmarks

Feel free to contact me PM
when links are dead or want any repost
× The Portrait Masters - The Lighting Series with Felix Kunze and Sue Bryce Close



Download File Size:14.44 GB


The Portrait Masters - The Lighting Series with Felix Kunze and Sue Bryce
€30
Customers who bought this program also bought:
  • MasterClass - Ken Burns Teaches Documentary Filmmaking €15
  • Adobe After Effects 2020 17.0.5.16 Multilingual €90
  • Adobe Premiere Pro 2020 14.0.4.18 Multilingual €70
  • CloneDVD 7 Ultimate 7.0.2.1 Multilingual €15
  • Corel VideoStudio Ultimate 2020 23.0.1.391 €25
  • MasterClass - Kelly Wearstler Teaches Interior Design €10
  • Drone Cinematography Masterclass €20
  • Maxon CINEMA 4D Studio R21.207 x64 Multilingual €50
  • Topaz Video Enhance AI 1.0.2 €25
  • The complete PowerDirector 18 Video Editing course for 2020 €10
  • CyberLink PowerDirector Ultimate 17.0.3005.0 €30
  • MasterClass - Spike Lee Teaches Independent Filmmaking €19
  • Adobe Acrobat Pro DC 2020.006.20042 Multilingual €70

  • Home| All Programs| Today added Progs| Download Status| Customers opinion| Helpdesk| Shopping cart      





    Adobe Master Collection 2022 €265

                 

    Windows 11 With Office 2021 €168






    Microsoft Office Pro 2021 €99

                 

    Microsoft Office 2021 for Mac €99






    Orchestral Tools TIME micro KONTAKT €40


    Steinberg HALion 6.4.0.101 STANDALONE €40


    Native Instruments Komplete 12 Ultimate Collectors Edition €50